Kapoor And Sons (2016) HQ 1080p – Blu-Ray – x264 – DTS-HDMA 7.1 – DDR


Chapters : Yes
Sample : Included

Format : Matroska
File size : 13.6 GiB
Duration : 2h 17mn
Overall bit rate : 14.2 Mbps
Encoded date : UTC 2016-06-15 19:44:07

Video
Format : AVC
Format profile : High@L4.1
Bit rate : 10 000 Kbps
Width : 1 920 pixels
Height : 816 pixels
Display aspect ratio : 2.35:1
Frame rate mode : Constant
Frame rate : 24.000 fps
Chroma subsampling : 4:2:0
Bit depth : 8 bits
Scan type : Progressive
Bits/(Pixel*Frame) : 0.266
Stream size : 9.62 GiB (71%)
Default : Yes
Forced : No
Color range : Limited
Color primaries : BT.709

Audio
Format : DTS
Format/Info : Digital Theater Systems
Format profile : MA / Core
Duration : 2h 17mn
Bit rate mode : Variable / Constant
Bit rate : 4 128 Kbps / 1 509 Kbps
Channel(s) : 8 channels / 6 channels
Channel positions : Front: L C R, Side: L R, Back: L R, LFE / Front: L C R, Side: L R, LFE
Sampling rate : 48.0 KHz
Frame rate : 93.750 fps (512 spf)
Bit depth : 24 bits
Compression mode : Lossless / Lossy
Stream size : 3.97 GiB (29%)
Language : Hindi
Default : Yes
Forced : No

Text
Format : PGS
Bit rate : 38.4 Kbps
Count of elements : 4320
Stream size : 34.8 MiB (0%)
Language : English
Default : Yes
Forced : No




SINGLE DIRECT FAST LINKS

http://nitroflare.com/view/B13EEA17E439B4C/Kapoor.and.Sons.2016.HQ.1080p.Blu-ray.x264.DTS-HDMA.7.1.ESub-DDR.mkv


2GB LINKS


http://nitroflare.com/view/DE55EE5FE0E2FC2/Kapoor.and.Sons.2016.HQ.1080p.Blu-ray.x264.DTS-HDMA.7.1.ESub-DDR.mkv.001
http://nitroflare.com/view/C72E6F7B556B5B3/Kapoor.and.Sons.2016.HQ.1080p.Blu-ray.x264.DTS-HDMA.7.1.ESub-DDR.mkv.002
http://nitroflare.com/view/637F8E8B2C69748/Kapoor.and.Sons.2016.HQ.1080p.Blu-ray.x264.DTS-HDMA.7.1.ESub-DDR.mkv.003
http://nitroflare.com/view/FCB6C6EA326989F/Kapoor.and.Sons.2016.HQ.1080p.Blu-ray.x264.DTS-HDMA.7.1.ESub-DDR.mkv.004
http://nitroflare.com/view/72DC28164A45568/Kapoor.and.Sons.2016.HQ.1080p.Blu-ray.x264.DTS-HDMA.7.1.ESub-DDR.mkv.005
http://nitroflare.com/view/FDBB7387C11B36C/Kapoor.and.Sons.2016.HQ.1080p.Blu-ray.x264.DTS-HDMA.7.1.ESub-DDR.mkv.006
http://nitroflare.com/view/1EE7A3274AA9EE2/Kapoor.and.Sons.2016.HQ.1080p.Blu-ray.x264.DTS-HDMA.7.1.ESub-DDR.mkv.007

http://rapidgator.net/file/eb09e437dc2fb8822d6fd54042b8c4ea/Kapoor.and.Sons.2016.HQ.1080p.Blu-ray.x264.DTS-HDMA.7.1.ESub-DDR.mkv.001.html
http://rapidgator.net/file/0c85eee1f353b340973389d435983dd3/Kapoor.and.Sons.2016.HQ.1080p.Blu-ray.x264.DTS-HDMA.7.1.ESub-DDR.mkv.002.html
http://rapidgator.net/file/482301b34c43c593917f590085efa253/Kapoor.and.Sons.2016.HQ.1080p.Blu-ray.x264.DTS-HDMA.7.1.ESub-DDR.mkv.003.html
http://rapidgator.net/file/12d609b13e788d9336db066bb3b699ed/Kapoor.and.Sons.2016.HQ.1080p.Blu-ray.x264.DTS-HDMA.7.1.ESub-DDR.mkv.004.html
http://rapidgator.net/file/c9cadd2b421a0687aeb79cfc599fb075/Kapoor.and.Sons.2016.HQ.1080p.Blu-ray.x264.DTS-HDMA.7.1.ESub-DDR.mkv.005.html
http://rapidgator.net/file/f96fefad5145a884dff22cc5546b66ab/Kapoor.and.Sons.2016.HQ.1080p.Blu-ray.x264.DTS-HDMA.7.1.ESub-DDR.mkv.006.html
http://rapidgator.net/file/7f1200840ed04cf1a2a409bb5fbfbb66/Kapoor.and.Sons.2016.HQ.1080p.Blu-ray.x264.DTS-HDMA.7.1.ESub-DDR.mkv.007.html

The post Kapoor And Sons (2016) HQ 1080p – Blu-Ray – x264 – DTS-HDMA 7.1 – DDR appeared first on Best-MovieZ.WS.

Best-MovieZ.WS