Speedunnodu (2016) Telugu – 700MB – 1CDRip – PreDVDRip – x264 – AAC-TTT

Format                                   : Matroska
Format version : Version 4 / Version 2
File size : 727 MiB
Duration : 2h 24mn
Overall bit rate : 702 Kbps


Video
ID : 2
Format : AVC
Format/Info : Advanced Video Codec
Format profile : High@L3
Format settings, CABAC : Yes
Format settings, ReFrames : 4 frames
Codec ID : V_MPEG4/ISO/AVC
Duration : 2h 24mn
Bit rate : 604 Kbps
Width : 720 pixels
Height : 304 pixels
Display aspect ratio : 2.35:1
Frame rate mode : Constant
Frame rate : 23.976 (24000/1001) fps
Color space : YUV
Chroma subsampling : 4:2:0
Bit depth : 8 bits
Scan type : Progressive
Bits/(Pixel*Frame) : 0.115
Stream size : 626 MiB (86%)
Writing library : x264 core
Default : Yes
Forced : No

Audio
ID : 1
Format : AAC
Format/Info : Advanced Audio Codec
Format profile : LC
Codec ID : A_AAC
Duration : 2h 24mn
Bit rate : 96.0 Kbps
Channel(s) : 2 channels
Channel positions : Front: L R
Sampling rate : 44.1 KHz
Frame rate : 43.066 fps (1024 spf)
Compression mode : Lossy
Stream size : 99.5 MiB (14%)
Default : Yes
Forced : No





SINGLE DIRECT FAST LINKS

http://nitroflare.com/view/0E9CA9695CBDB80/Speedunnodu.2016.480P.x264.700MB-TTT.mkv

http://rapidgator.net/file/336c5f73121d8a33223dad7c28b53703/Speedunnodu.2016.480P.x264.700MB-TTT.mkv.html

The post Speedunnodu (2016) Telugu – 700MB – 1CDRip – PreDVDRip – x264 – AAC-TTT appeared first on Best-MovieZ.WS.

Best-MovieZ.WS